يقين الزهراء



 
الرئيسيةالتسجيلدخول

شاطر | 
 

 Red Riding Hood 2011 R5 XviD-BiDA

اذهب الى الأسفل 
كاتب الموضوعرسالة
المدير العام
منشئ الموقع
منشئ الموقع
avatar

ذكر
عدد المشاركات : 329
نقاط : 612
السٌّمعَة : 2

مُساهمةموضوع: Red Riding Hood 2011 R5 XviD-BiDA    الأربعاء مايو 25, 2011 8:40 pm


Red Riding Hood 2011 R5 XviD-BiDA





الكود:

Format                          : AVI
Format/Info                      : Audio Video Interleave
File size                        : 702 MiB
Duration                        : 1h 39mn
Overall bit rate                : 984 Kbps
Writing application              : MEncoder SVN-r1.0~rc3+svn20090426-4.4.3
Writing library                  : VirtualDub build 32842/release

Video
ID                              : 0
Format                          : MPEG-4 Visual
Format profile                  : Advanced Simple@L5
Format settings, BVOP            : Yes
Format settings, QPel            : No
Format settings, GMC            : No warppoints
Format settings, Matrix          : Custom
Codec ID                        : XVID
Codec ID/Hint                    : XviD
Duration                        : 1h 39mn
Bit rate                        : 850 Kbps
Width                            : 640 pixels
Height                          : 272 pixels
Display aspect ratio            : 2.35:1
Frame rate                      : 24.000 fps
Original frame rate              : 25.000 fps
Resolution                      : 8 bits
Colorimetry                      : 4:2:0
Scan type                        : Progressive
Bits/(Pixel*Frame)              : 0.204
Stream size                      : 607 MiB (86%)
Writing library                  : XviD 58

Audio
ID                              : 1
Format                          : MPEG Audio
Format version                  : Version 1
Format profile                  : Layer 3
Codec ID                        : 55
Codec ID/Hint                    : MP3
Duration                        : 1h 35mn
Bit rate mode                    : Constant
Bit rate                        : 128 Kbps
Channel(s)                      : 2 channels
Sampling rate                    : 44.1 KHz
Video delay                      : 2s 508ms
Stream size                      : 87.2 MiB (12%)
Alignment                        : Split accross interleaves
Interleave, duration            : 27 ms (0.66 video frame)
Interleave, preload duration    : 1440 ms











الكود:

FileServe (1LinK)
http://www.fileserve.com/file/Gd87ykb
الكود:

UploadStation (1LinK)
http://www.uploadstation.com/file/RFwyvZA
الكود:

FileSoniC (1LinK)
http://www.filesonic.com/file/1061452684
الكود:

FileServe
http://www.fileserve.com/file/H4KB4X9
http://www.fileserve.com/file/MZEtTPD
الكود:

FileSoniC
http://www.filesonic.com/file/1061466614/Mahlolly.part1.rar
http://www.filesonic.com/file/1061454204/Mahlolly.part2.rar
الكود:

UploadStation
http://www.uploadstation.com/file/RXWWwRH
http://www.uploadstation.com/file/FEmqBwc
الكود:

RapidShare
https://rapidshare.com/files/168248781/Mahlolly.part1.rar
https://rapidshare.com/files/2184094858/Mahlolly.part2.rar
الكود:

MegaUpload
http://www.megaupload.com/?d=2UOMUJRL
other part uploading

_________________
الرجوع الى أعلى الصفحة اذهب الى الأسفل
http://hfah.3oloum.com
 
Red Riding Hood 2011 R5 XviD-BiDA
الرجوع الى أعلى الصفحة 
صفحة 1 من اصل 1
 مواضيع مماثلة
-
» لن نرضى بغير كأس اسيا2011
» حصريا وفبل الجميع مهرجان ابوح 2011
» حصريا عمرو حاحا مولد عين شمس 2011
» أول سيدة أسترالية سوف تزور الفضاء في 2011
» سيارة انفينيتي (Infiniti QX (2011

صلاحيات هذا المنتدى:لاتستطيع الرد على المواضيع في هذا المنتدى
يقين الزهراء :: يقين الافلام :: افلام اجنبية..-
انتقل الى: